#TITLE:Run;
#SUBTITLE:;
#ARTIST:신화;
#TITLETRANSLIT:Run;
#SUBTITLETRANSLIT:;
#ARTISTTRANSLIT:Shinhwa;
#CREDIT:;
#BANNER:Run-bn.png;
#BACKGROUND:Run-bg.png;
#LYRICSPATH:;
#CDTITLE:pm4cd.png;
#MUSIC:Run.mp3;
#OFFSET:0.400;
#SAMPLESTART:41.652;
#SAMPLELENGTH:20.000;
#SELECTABLE:YES;
#BPMS:0.000=120.020,276.000=60.020,294.000=120.020,341.000=240.020,343.000=120.020;
#STOPS:;
#BGCHANGES:;
// cache tags:
#FIRSTBEAT:4.000;
#LASTBEAT:406.500;
#SONGFILENAME:Songs/SDO/Run/Run.sm;
#HASMUSIC:1;
#HASBANNER:1;
#MUSICLENGTH:216.711;
// end cache tags

//---------------dance-single - ----------------
#NOTES:
     dance-single:
     :
     Hard:
     11:
     0.910,1.000,1.000,0.217,0.535,959.000,350.000,47.000,0.000,74.000:
0000
0000
0000
0000
,
0011
0100
0001
1000
0010
0100
0001
0100
,
0010
0000
1000
0000
0001
0000
0100
0000
0010
0000
0100
0000
0001
1000
0001
0000
,
0100
0010
0001
1000
0010
0100
0001
1000
,
0100
0010
1000
0000
0001
0000
0100
0000
0010
0000
1000
0000
0001
1000
0000
0000
,
1010
0010
0101
0100
1010
0000
0101
0000
1010
0000
0110
0000
1001
0000
0100
0000
,
0101
0001
1010
0010
0101
0000
1010
0000
0101
0000
0011
0000
1010
0000
0101
0000
,
1001
1000
0101
0100
1010
0000
0110
0000
1001
0000
0110
0000
0101
0000
1001
0000
,
0101
0001
0100
0100
1001
0000
1010
0000
0110
0000
0001
0000
0100
0000
0010
0000
,
1101
0000
0001
0110
0000
1100
0001
0000
,
1110
0000
0000
0000
0010
0000
1001
0000
0000
0000
1100
0000
0001
1010
0000
0000
,
1101
0000
0010
1100
0000
0011
1000
0000
,
1011
0000
1010
0000
0001
0000
1100
0000
0000
0000
1010
0000
0001
0100
0010
0000
,
0001
0000
1000
0010
0000
0110
0001
0000
,
1101
0000
0000
0000
0010
0000
1010
0000
0000
0000
0101
0000
0010
1001
0000
0000
,
0111
0000
0100
1001
0000
1100
0001
0100
,
1100
0011
1010
0000
1001
0000
0100
0000
0200
0000
0000
0000
0000
0000
0000
0000
,
1311
0110
1001
1010
0001
1000
0011
0100
,
1110
0000
0010
0000
1001
0000
0010
0000
1000
0000
0100
0000
0011
1000
0000
0000
,
1101
0110
1001
1010
0001
0110
1000
0200
,
1001
0010
1000
0010
1001
0010
1301
0000
,
1011
0100
0010
0001
1000
0000
0011
0100
1000
0000
0100
0000
0101
0000
0010
0000
,
1010
0100
0001
0010
1000
0000
0101
1000
0001
0000
0100
0000
1010
0001
0000
0000
,
1001
0100
0010
0001
1000
0000
0100
0010
0100
0000
1000
0000
0101
0000
1000
0000
,
1001
0100
1001
0100
0010
0000
0101
0010
1000
0000
0101
0000
1010
0000
0011
0000
,
1101
0010
0001
0100
0010
0000
1000
0010
1100
0000
0001
0000
0011
0000
1000
0000
,
0101
1000
0010
0001
1000
0000
0001
0010
1100
0000
0010
0000
0101
0000
1010
0000
,
1001
0010
0001
0010
1001
0000
0010
1000
0100
0000
1010
0000
0101
0000
1000
0000
,
0101
0101
1010
1010
0101
0000
1100
0000
0001
0000
0010
0000
1000
0000
0100
0000
,
1201
0000
0000
0000
1000
0000
0010
0000
1320
0001
1000
0000
0001
0000
1000
0000
,
2030
0100
0100
0100
3012
0100
0010
1000
,
0213
0000
0010
0000
0010
0000
1000
0000
1320
0001
1000
0000
0001
0000
0100
0000
,
2030
0001
0001
0001
3102
0100
0010
1000
,
0123
0000
0100
0000
1000
0000
0100
0000
1230
0001
0001
0000
0001
0000
1000
0000
,
0302
0100
0100
0100
2013
0010
0010
0100
,
3021
0000
0001
0000
0001
0000
0100
0000
1230
1000
1000
0000
1000
0000
0001
0000
,
0302
0000
1000
0000
1000
0000
0100
0000
2003
0000
0100
0010
0000
0001
0010
0000
,
3101
0000
0100
1010
0000
1100
0010
0000
,
0000
0000
0010
0000
0100
0000
0011
0000
0000
0000
1010
0000
0100
0011
0000
0000
,
1110
0000
1000
0101
0000
0110
1000
0000
,
0111
0000
1100
0000
0010
0000
0101
0000
0000
0000
1001
0000
0010
0100
1000
0000
,
0100
0000
0001
1000
0000
1010
0100
0000
,
1011
0000
0000
0000
0001
0000
1100
0000
0000
0000
1100
0000
1000
0101
0000
0000
,
1110
0000
0100
1001
0000
0101
1000
0000
,
1100
0110
1010
0000
1001
0000
0100
0000
0200
0000
0000
0000
0000
0000
0000
0000
,
1310
1000
0101
0001
1010
0000
0110
0000
0101
0000
1100
0000
1001
0000
0010
0000
,
1010
0010
0101
0001
1010
0000
0110
0000
0101
0000
1100
0000
1001
0000
0101
0000
,
1010
1000
0101
0100
1001
0000
1010
0000
0101
0000
1100
0000
0011
0000
1100
0000
,
1010
0010
0100
0100
1001
0000
0011
0000
0110
0000
0001
0000
0100
0000
0010
0000
,
1101
0100
0010
0001
1000
0000
0011
0100
1000
0000
0100
0000
0101
0000
0010
0000
,
1010
0100
0001
0010
1000
0000
0101
1000
0001
0000
0100
0000
1010
0001
0000
0000
,
1001
0100
0010
0001
1000
0000
0100
0010
0100
0000
1000
0000
0101
0000
1000
0000
,
1001
0100
1001
0100
0010
0000
0101
0010
1000
0000
0101
0000
1010
0000
0011
0000
,
1011
0100
0010
0001
1000
0000
0011
0100
1000
0000
0100
0000
0101
0000
0010
0000
,
1010
0100
0001
0010
1000
0000
0101
1000
0001
0000
0100
0000
1010
0001
0000
0000
,
1001
0100
0010
0001
1000
0000
0100
0010
0100
0000
1000
0000
0101
0000
1000
0000
,
1001
0100
1001
0100
0010
0000
0101
0010
1000
0000
0101
0000
1010
0000
0011
0000
,
1101
0010
0001
0100
0010
0000
1000
0010
1100
0000
0001
0000
0011
0000
1000
0000
,
0101
1000
0010
0001
1000
0000
0001
0010
1100
0000
0010
0000
0101
0000
1010
0000
,
1001
0010
0001
0010
1001
0000
0010
1000
0100
0000
1010
0000
0101
0000
1000
0000
,
0101
0101
1010
1010
0101
0000
1100
0000
0001
0000
0010
0000
1000
0000
0100
0000
,
1001
0000
0010
0000
0100
0000
0001
0001
0100
0000
1000
1000
0001
0000
0010
0000
,
0101
1000
0010
0100
0010
0001
1000
0100
,
1100
0010
0001
0100
1000
0100
0010
0001
,
1100
0101
1010
0100
0020
0100
1000
0001
,
0030
0000
0100
0000
1010
0000
0100
0100
1010
0000
1000
1000
0101
0000
0010
0000
,
1100
0000
0001
0000
0010
0000
0100
0000
0001
0000
1000
0000
0001
0000
0100
0010
,
1001
0010
0100
0010
0001
0000
0010
0000
0100
0000
1000
0000
0001
0000
0010
0000
,
1001
0110
1010
1000
0100
0010
0001
0010
,
0200
0000
0320
0000
,
0032
0000
0000
0000
0000
0000
0000
0000
0023
0000
0000
0000
0001
0100
1000
0100
,
1231
0000
0000
0000
0010
0000
0000
0000
0000
0000
0000
0000
0010
0000
0000
0000
2301
0000
0000
0000
0010
0000
0000
0000
0000
0000
0101
0000
0101
0101
0000
0000
,
3021
0000
0000
0000
0101
0000
0000
0000
0000
0000
0101
0000
0101
0101
0101
0000
2230
0000
0000
0000
0001
0000
0000
0000
0000
0000
0011
0000
0011
0011
0011
0000
,
3322
0000
0100
0000
1000
0100
1000
0000
0000
0000
1000
0000
0100
0000
1100
0000
1233
0000
0000
0000
0000
0000
0000
0000
1000
0000
0000
0000
0010
0000
0000
0000
,
1320
0001
1000
0000
0001
0000
1000
0000
2030
0000
0100
0000
0100
0000
0100
0000
,
3012
0100
0010
1000
0213
0010
0010
1000
,
1320
0001
1000
0000
0001
0000
0100
0000
2030
0000
0001
0000
0001
0000
0001
0000
,
3102
0100
0010
1000
0123
0100
1000
0100
,
1230
0001
0001
0000
0001
0000
1000
0000
0302
0000
0100
0000
0100
0000
0100
0000
,
2013
0010
0010
0100
3021
0001
0001
0100
,
1230
1000
1000
0000
1000
0000
0001
0000
0302
0000
1000
0000
1000
0000
0100
0000
,
2003
0000
0000
0000
0000
0000
0000
0000
3010
0100
0010
0001
0100
0010
0100
1000
,
0010
0100
0010
0001
0100
0010
0100
1000
0100
1000
0100
0010
0001
0010
0100
1000
,
0100
1000
0100
0010
0001
0010
0100
1000
0010
0100
0010
0001
0010
0001
0010
1000
,
0100
1000
0100
0001
0010
0001
0010
0100
0010
1000
0100
0010
0001
0010
0100
1000
,
0001
0000
0000
0000
0000
0000
0000
0000
0000
0000
0000
0000
1011
0100
1010
0101
,
1000
0000
0101
1001
0010
0000
0100
0010
1100
0010
0101
0000
1001
0110
1001
0010
,
0100
0000
1001
0100
1001
0000
0100
1000
0101
1000
0011
0100
1011
1000
0101
0010
,
1001
0000
0110
1000
0101
0000
0010
1000
0101
0010
1000
0000
1010
0001
0100
0010
,
1100
0000
0101
0010
1001
0000
0100
0101
0000
1000
0110
1000
0101
1010
0001
1000
,
0101
0000
0010
0001
1010
0000
0101
1000
0001
0100
0010
0000
0011
1000
0101
0010
,
1100
0000
0101
0010
1000
0000
0100
0010
1001
0100
0100
0000
1010
0001
0001
0010
,
1100
0000
0010
0001
1010
0000
0110
1000
0101
0010
1000
0000
0110
1001
0110
0100
,
1001
0000
0100
0010
1100
0000
0010
1001
0000
0100
0110
0000
1101
0010
1000
0101
,
1010
0000
0110
0001
1010
0000
0100
0010
1100
0001
1010
0000
0101
1010
0101
0001
,
1100
0000
0101
0010
1001
0000
0010
0100
1001
0010
0101
0000
1101
1000
0010
0001
,
1001
0000
0110
1000
0101
0000
0010
1010
0001
0000
1010
0000
1001
0010
0100
0010
,
1100
0000
0101
0010
1001
0000
0100
0101
0000
1000
0110
1000
0101
1010
0001
1000
,
0110
0000
1000
0001
1010
0000
0101
1000
0010
0100
0010
0000
0101
0010
1100
0010
,
1001
0000
0100
0100
1001
0000
0010
0100
1001
0100
0100
0000
1001
0100
1001
0100
,
1010
0000
0010
0001
1010
0000
0100
1001
0101
0010
1000
0000
0110
1010
0101
0101
,
1001
0000
0100
0010
1001
0100
1010
0001
0100
0010
1000
0000
0000
0000
0000
0000
;

//---------------dance-single - ----------------
#NOTES:
     dance-single:
     :
     Medium:
     1:
     0.000,0.000,0.000,0.000,0.000,0.000,0.000,0.000,0.000,0.000:
0000
0000
0000
0000
;
